<?xml version="1.0" standalone="no"?>
<!DOCTYPE svg PUBLIC "-//W3C//DTD SVG 1.1//EN" "http://www.w3.org/Graphics/SVG/1.1/DTD/svg11.dtd" >
<!--
2013-9-30: Created.
-->
<svg>
<metadata>
Created by iconfont
</metadata>
<defs>

<font id="iconfont" horiz-adv-x="1024" >
  <font-face
    font-family="iconfont"
    font-weight="500"
    font-stretch="normal"
    units-per-em="1024"
    ascent="896"
    descent="-128"
  />
    <missing-glyph />
    
    <glyph glyph-name="x" unicode="x" horiz-adv-x="1001"
d="M281 543q-27 -1 -53 -1h-83q-18 0 -36.5 -6t-32.5 -18.5t-23 -32t-9 -45.5v-76h912v41q0 16 -0.5 30t-0.5 18q0 13 -5 29t-17 29.5t-31.5 22.5t-49.5 9h-133v-97h-438v97zM955 310v-52q0 -23 0.5 -52t0.5 -58t-10.5 -47.5t-26 -30t-33 -16t-31.5 -4.5q-14 -1 -29.5 -0.5
t-29.5 0.5h-32l-45 128h-439l-44 -128h-29h-34q-20 0 -45 1q-25 0 -41 9.5t-25.5 23t-13.5 29.5t-4 30v167h911zM163 247q-12 0 -21 -8.5t-9 -21.5t9 -21.5t21 -8.5q13 0 22 8.5t9 21.5t-9 21.5t-22 8.5zM316 123q-8 -26 -14 -48q-5 -19 -10.5 -37t-7.5 -25t-3 -15t1 -14.5
t9.5 -10.5t21.5 -4h37h67h81h80h64h36q23 0 34 12t2 38q-5 13 -9.5 30.5t-9.5 34.5q-5 19 -11 39h-368zM336 498v228q0 11 2.5 23t10 21.5t20.5 15.5t34 6h188q31 0 51.5 -14.5t20.5 -52.5v-227h-327z" />
    

    
    <glyph glyph-name="subscript" unicode="&#58882;" d="M948.308-224l-436.308 276.028-436.308-276.028v1024h872.616v-512.013z"  horiz-adv-x="1024" />

    
    <glyph glyph-name="jiaobiao5" unicode="&#58914;" d="M886.171 322.988v-146.971l73.386 73.488v146.966zM959.556 587.541h-782.237c-14.342 0-31.946-10.451-39.117-23.224l-68.831-122.57c-7.171-12.773-7.171-33.668 0-46.437l68.83-122.574c7.172-12.773 24.775-23.224 39.117-23.224h584.562c0.034 0 0.069 0.002 0.102 0.002l197.574-0.002-0 338.028z"  horiz-adv-x="1024" />

    
    <glyph glyph-name="iconreturncash" unicode="&#58974;" d="M436.520935 499.308189c98.17395 0 200.288652 21.593807 261.606183 62.761416l0-74.953086 56.818053 0L754.945171 651.225157c0 98.656951-164.012448 151.921062-318.328046 151.921062-154.323784 0-318.42833-53.264111-318.42833-151.921062l0-447.88475c0-98.656951 164.008354-151.920038 318.332139-151.920038L436.520935 108.133022c-162.093748 0-261.614369 55.474452-261.614369 95.207385L174.906565 337.98192c61.325717-41.072441 163.341159-62.761416 261.614369-62.761416l0 56.812937c-162.093748 0-261.614369 55.470359-261.614369 95.199199L174.906565 561.973414C236.232283 520.901996 338.343915 499.308189 436.520935 499.308189L436.520935 499.308189 436.520935 499.308189zM436.520935 746.42845c162.089655 0 261.606183-55.474452 261.606183-95.203292 0-39.72884-99.516528-95.199199-261.606183-95.199199-162.093748 0-261.614369 55.470359-261.614369 95.199199C174.906565 690.953997 274.522354 746.42845 436.520935 746.42845L436.520935 746.42845 436.520935 746.42845zM691.028443 468.212984c-140.976802 0-214.682477-54.222949-214.682477-107.774609l0-287.813055c0-53.547567 73.801866-107.770516 214.682477-107.770516 139.924843 0 213.531258 53.455469 214.682477 106.619296l0.100284 0L905.811204 360.438375C905.71092 413.990035 832.008314 468.212984 691.028443 468.212984L691.028443 468.212984 691.028443 468.212984zM691.028443 411.496238c104.225783 0 157.964708-35.800367 157.964708-51.057863 0-15.257495-53.738925-51.05377-157.964708-51.05377-104.22169 0-157.964708 35.796274-157.964708 51.05377C533.063735 375.69587 586.80266 411.496238 691.028443 411.496238L691.028443 411.496238 691.028443 411.496238zM691.028443 21.572574c-104.22169 0-157.964708 35.795251-157.964708 51.052746l0 68.718081c35.987632-19.578917 88.871073-32.630165 157.964708-32.630165 69.096704 0 121.884978 13.051247 157.964708 32.630165l0-68.718081C848.993151 57.367825 795.254226 21.572574 691.028443 21.572574L691.028443 21.572574 691.028443 21.572574zM691.028443 165.526173c-104.22169 0-157.964708 35.796274-157.964708 51.057863l0 68.712965c35.987632-19.577894 88.871073-32.629141 157.964708-32.629141 69.096704 0 121.884978 13.051247 157.964708 32.629141l0-68.712965C848.993151 201.326541 795.254226 165.526173 691.028443 165.526173L691.028443 165.526173 691.028443 165.526173zM691.028443 165.526173"  horiz-adv-x="1024" />

    
    <glyph glyph-name="benyue" unicode="&#58908;" d="M241.705341 164.684345c27.085623-20.951009 57.637584-31.463484 91.774445-31.463484 27.279402 0 48.823219 6.658581 64.74874 20.039486s23.888281 31.333449 23.888281 53.788789c0 50.062381-35.834971 75.12608-107.566105 75.12608l-32.966541 0L281.58416 323.623384l31.398466 0c63.508303 0 95.300701 23.500724 95.300701 70.560815 0 43.468818-24.282212 65.141396-72.846635 65.141396-27.74345 0-53.91755-9.402074-78.458558-28.131007l0 47.25387c25.915304 15.015272 56.133252 22.519084 90.729062 22.519084 33.744204 0 60.834927-8.809266 81.267069-26.432896 20.428317-17.623631 30.676897-40.536645 30.676897-68.603909 0-51.760491-26.439271-85.115864-79.240045-99.930983l0-1.046658c28.58868-3.067307 51.2378-13.180752 67.816047-30.282966 16.578247-17.104764 24.933664-38.449704 24.933664-64.036094 0-35.636093-12.793195-64.291066-38.444604-86.092405-25.651409-21.802614-59.788269-32.703921-102.346838-32.703921-37.469338 0-67.752304 6.987494-90.729062 20.956108L241.705341 164.684345 241.705341 164.684345 241.705341 164.684345zM241.705341 164.684345M535.301209 288.640018c0 69.837971 11.552759 122.708863 34.72457 158.545109 23.171811 35.834971 56.720962 53.782415 100.718845 53.782415 83.806585 0 125.712427-67.622269 125.712427-202.930549 0-66.775763-11.811555-117.884802-35.377297-153.197081-23.629485-35.377297-56.720962-53.002202-99.279531-53.002202-40.207732 0-71.342303 16.7784-93.407537 50.327551C546.331276 175.714412 535.301209 224.537631 535.301209 288.640018L535.301209 288.640018 535.301209 288.640018zM586.408973 290.920738c0-105.086507 26.633049-157.699878 79.95779-157.699878 52.483335 0 78.722453 53.394858 78.722453 160.244494 0 110.573494-25.721526 165.860241-77.153104 165.860241C613.629731 459.325595 586.408973 403.192343 586.408973 290.920738L586.408973 290.920738 586.408973 290.920738zM586.408973 290.920738M838.169115 822.894569c-18.276358 0-33.161594 14.94388-33.161594 33.156495l0 6.792441c0 18.276358-14.94388 33.156495-33.156495 33.156495l-6.792441 0c-18.276358 0-33.156495-14.950254-33.156495-33.156495l0-6.792441c0-18.276358-14.94898-33.156495-33.15522-33.156495l-372.971048 0c-18.276358 0-33.156495 14.94388-33.156495 33.156495l0 6.792441c0 18.276358-14.94898 33.156495-33.16032 33.156495l-6.852359 0c-18.276358 0-33.161594-14.950254-33.161594-33.156495l0-6.792441c0-18.276358-14.945155-33.156495-33.156495-33.156495l-153.132064 0c-18.276358 0-33.156495-14.950254-33.156495-33.161594l0-884.57138c0-18.276358 14.950254-33.161594 33.156495-33.161594l957.746928 0c18.21134 0 33.16032 14.950254 33.16032 33.161594l0 884.57138c0 18.21134-14.94898 33.161594-33.16032 33.161594L838.169115 822.894569 838.169115 822.894569 838.169115 822.894569zM962.711224-21.734249c0-18.21134-3.168021-47.332911-44.848214-49.338262l-811.532242 0c-37.488461 0-46.274779 31.125647-46.274779 49.338262L60.055989 716.563801c0 26.293937 28.063439 43.026442 46.274779 43.026442l79.95779 0c18.276358 0 33.156495-24.815102 33.156495-43.026442l0-25.805666c0-18.276358 14.94898-33.156495 33.161594-33.156495l6.852359 0c18.275083 0 33.16032 14.945155 33.16032 33.156495l0 25.805666c0 18.276358 14.945155 41.751585 33.156495 41.751585l372.835913 0c18.276358 0 33.161594-23.540245 33.161594-41.751585l0-26.230194c0-18.276358 14.945155-33.156495 33.156495-33.156495l6.787342 0c18.276358 0 33.161594 14.945155 33.161594 33.156495l0 26.230194c0 18.276358 15.173354 40.476727 33.384694 40.476727L917.897431 757.040528c28.471394 0 45.044542-16.148621 44.620014-40.476727L962.711224-21.734249 962.711224-21.734249 962.711224-21.734249zM962.711224-21.734249"  horiz-adv-x="1025" />

    
    <glyph glyph-name="xiaojiaobiaoicon" unicode="&#58897;" d="M920.388201 286.836053 609.163947-24.388201c-53.44012-53.44012-140.887774-53.44012-194.328917 0L103.610776 286.836053c-53.44012 53.44012-53.44012 140.887774 0 194.328917L414.836053 792.389224c53.44012 53.44012 140.887774 53.44012 194.328917 0l311.224254-311.224254C973.829344 427.723827 973.829344 340.276173 920.388201 286.836053z"  horiz-adv-x="1024" />

    
    <glyph glyph-name="tag-irregular" unicode="&#58883;" d="M0.001 890.931h1014.419s-60.255-17.698-84.535-89.415c-65.261-192.764-100.542-326.965-126.863-402.492-33.365-95.754-103.821-134.011-211.276-134.011h-591.745v625.919z"  horiz-adv-x="1029" />

    
    <glyph glyph-name="sanjiaobiaoshang" unicode="&#58934;" d="M1010.578 29.873l-10.111 20.222-387.548 786.295c-20.164 35.815-57.939 59.609-101.271 59.609s-81.106-23.794-100.97-59.030l-5.804-11.651-386.78-784.695h0.256l2.56 5.12-5.439-11.007c-5.882-13.419-9.305-29.060-9.305-45.5 0-2.499 0.079-4.98 0.235-7.44l-0.017 0.144c1.344-20.606 7.999-39.804 18.75-56.187l0.256-0.512c13.643-20.221 30.475-37.143 49.961-50.468l-44.201 42.532 0.832-1.024c3.446-4.694 7.842-8.487 12.924-11.147-8.444 5.964-7.74 5.132-6.716 4.172l3.648-3.84c1.159-0.94 2.068-2.144 2.639-3.523l1.329-0.061c2.569-2.536 5.673-4.537 9.127-5.817l-5.159 2.361c1.78-1.179 3.232-2.712 4.282-4.508-0.751 1.52 1.464 0.295 3.916-0.34l-2.055 0.24c0.96-0.704 1.664-1.28 2.624-1.792 0.64-0.448 1.344-0.832 1.92-1.344 0.896-0.576 1.728-1.152 2.624-1.536 0.704-0.384 1.344-0.896 2.112-1.28 0.896-0.512 1.664-1.024 2.624-1.408l2.24-1.216c0.896-0.448 1.664-0.896 2.624-1.28 0.768-0.384 1.6-0.704 2.368-1.152 1.024-0.384 1.728-0.832 2.688-1.152l2.432-0.96 2.688-1.088 2.688-0.896c3.199-0.976 5.988-2.347 8.497-4.091l-3.122 2.363 2.624-0.704c4.13-1.166 8.9-1.907 13.818-2.052-7.163 0.644-6.267 0.388-5.179 0.26l2.496-0.448c2.459-0.425 5.309-0.684 8.214-0.715l-2.455 0.011 3.84-0.32 1.92-0.128 5.887-0.064h779.64c64.062 0.036 115.985 51.959 116.021 116.018 0.001 0.207 0.002 0.448 0.002 0.689 0 14.478-2.629 28.343-7.435 41.142z"  horiz-adv-x="1024" />

    
    <glyph glyph-name="sanjiaobiaoxia" unicode="&#58936;" d="M13.532 739.121l10.045-20.218 387.463-786.186c20.151-35.839 57.935-59.654 101.28-59.654 43.346 0 81.129 23.815 100.98 59.073l5.803 11.649 386.695 784.587h-0.256l-2.559-5.182 5.438 11.005c5.95 13.948 9.341 29.367 9.341 45.49 0 2.431-0.128 4.798-0.256 7.166v0.192c-1.511 22.672-9.314 43.264-21.658 60.36l2.592-3.738c-0.768 1.28-1.663 2.495-2.495 3.711-0.32 0.256-0.448 0.512-0.64 0.832-5.339 7.363-11.969 13.439-19.606 18.003l16.215-13.652c-3.479 4.66-7.904 8.418-13.009 11.037 8.594-5.919 7.827-5.023 6.867-4.127l-1.216 1.28-2.495 2.559-1.344 1.344-2.623 2.303-1.472 1.344-2.559 2.111-1.663 1.344c-0.896 0.704-1.663 1.344-2.623 1.919l-1.855 1.344c-0.896 0.64-1.663 1.216-2.623 1.791l-1.919 1.28c-0.896 0.576-1.727 1.152-2.623 1.6l-2.111 1.216c-0.896 0.512-1.727 1.024-2.687 1.472-3.942 2.398-8.581 4.091-13.541 4.776l6.311-1.257c-0.96 0.384-1.727 0.832-2.687 1.152l-2.431 0.96-2.687 1.024-2.687 0.896c-4.137 1.314-7.735 3.108-10.988 5.366l5.614-3.702-2.623 0.704c-3.407 1.012-7.337 1.649-11.398 1.766l2.825-0.038-2.559 0.448c-2.405 0.424-5.192 0.683-8.034 0.714l2.34-0.010-3.839 0.32c-0.824 0.014-1.618 0.074-2.399 0.177l-5.406 0.015h-779.468c-64.095-0.051-116.033-52.022-116.033-116.124 0-14.521 2.665-28.42 7.534-41.233z"  horiz-adv-x="1024" />

    
    <glyph glyph-name="subscript1" unicode="&#58884;" d="M0-52.308l276.028 436.308-276.028 436.308h1024v-872.616h-512.013z"  horiz-adv-x="1024" />

    
    <glyph glyph-name="jingxuanxinbiaojiaobiaoicon" unicode="&#58885;" d="M64.304 690.993h895.393v-613.985l-457.423 76.749-437.97-76.749v613.985z"  horiz-adv-x="1024" />

    
    <glyph glyph-name="benyue1" unicode="&#58900;" d="M292.571429 749.714286h438.857142v-36.571429H292.571429zM950.857143 749.714286h-109.714286v-36.571429h109.714286c21.942857 0 36.571429-14.628571 36.571428-36.571428v-109.714286H36.571429V676.571429c0 21.942857 14.628571 36.571429 36.571428 36.571428h109.714286V749.714286H73.142857c-40.228571 0-73.142857-32.914286-73.142857-73.142857v-658.285715c0-40.228571 32.914286-73.142857 73.142857-73.142857h877.714286c40.228571 0 73.142857 32.914286 73.142857 73.142857V676.571429c0 40.228571-32.914286 73.142857-73.142857 73.142857z m36.571428-731.428572c0-21.942857-14.628571-36.571429-36.571428-36.571428H73.142857c-21.942857 0-36.571429 14.628571-36.571428 36.571428V530.285714h950.857142v-512zM219.428571 822.857143h36.571429v-182.857143H219.428571zM768 822.857143h36.571429v-182.857143h-36.571429zM376.685714 106.057143c-18.285714 0-29.257143 3.657143-43.885714 14.628571-10.971429 10.971429-18.285714 29.257143-25.6 51.2l-40.228571-7.314285c3.657143-29.257143 14.628571-51.2 32.914285-69.485715s43.885714-25.6 73.142857-25.6c32.914286 0 62.171429 10.971429 80.457143 29.257143 21.942857 21.942857 32.914286 47.542857 32.914286 76.8 0 21.942857-7.314286 40.228571-18.285714 54.857143-10.971429 14.628571-25.6 25.6-47.542857 29.257143 14.628571 7.314286 25.6 18.285714 36.571428 29.257143s10.971429 25.6 10.971429 40.228571c0 14.628571-3.657143 29.257143-10.971429 43.885714-7.314286 14.628571-21.942857 25.6-36.571428 32.914286-14.628571 7.314286-32.914286 10.971429-51.2 10.971429-25.6 0-51.2-7.314286-65.828572-21.942857-18.285714-14.628571-29.257143-36.571429-36.571428-65.828572l40.228571-7.314286c3.657143 21.942857 10.971429 36.571429 21.942857 47.542858s25.6 14.628571 40.228572 14.628571c14.628571 0 29.257143-3.657143 40.228571-14.628571 10.971429-10.971429 14.628571-21.942857 14.628571-36.571429 0-18.285714-7.314286-32.914286-21.942857-43.885714s-29.257143-14.628571-47.542857-14.628572h-7.314286l-3.657142-36.571428c10.971429 3.657143 21.942857 3.657143 29.257142 3.657143 18.285714 0 36.571429-7.314286 47.542858-18.285715 10.971429-10.971429 18.285714-29.257143 18.285714-47.542857s-7.314286-36.571429-21.942857-51.2c-3.657143-10.971429-18.285714-18.285714-40.228572-18.285714zM643.657143 73.142857c25.6 0 43.885714 7.314286 62.171428 18.285714 14.628571 14.628571 29.257143 32.914286 36.571429 58.514286 7.314286 25.6 10.971429 58.514286 10.971429 95.085714 0 32.914286-3.657143 62.171429-7.314286 80.457143-3.657143 18.285714-10.971429 36.571429-21.942857 51.2-7.314286 14.628571-21.942857 25.6-32.914286 32.914286-14.628571 7.314286-29.257143 10.971429-47.542857 10.971429-25.6 0-43.885714-7.314286-62.171429-18.285715-14.628571-14.628571-29.257143-32.914286-36.571428-58.514285-7.314286-25.6-10.971429-58.514286-10.971429-98.742858 0-62.171429 10.971429-109.714286 32.914286-138.971428 18.285714-21.942857 43.885714-32.914286 76.8-32.914286z m-47.542857 288.914286c10.971429 14.628571 25.6 25.6 47.542857 25.6 18.285714 0 36.571429-10.971429 47.542857-29.257143 14.628571-18.285714 18.285714-54.857143 18.285714-113.371429 0-54.857143-7.314286-91.428571-18.285714-109.714285s-29.257143-29.257143-47.542857-29.257143-36.571429 10.971429-47.542857 29.257143-18.285714 54.857143-18.285715 113.371428c0 54.857143 3.657143 91.428571 18.285715 113.371429z"  horiz-adv-x="1024" />

    
    <glyph glyph-name="call" unicode="&#58896;" d="M554.666667 520.533333v-93.866666h93.866666a93.866667 93.866667 0 0 1-93.866666 93.866666m0 187.733334v-93.866667c103.509333 0 187.733333-84.224 187.733333-187.733333h93.866667a281.6 281.6 0 0 1-281.6 281.6m0 187.733333v-93.866667c207.018667 0 375.466667-168.448 375.466666-375.466666H1024A469.333333 469.333333 0 0 1 554.666667 896m133.034666-941.056c-0.597333-1.536-0.597333-1.706667 0 0M802.986667 123.562667c-39.509333 21.333333-79.530667 45.482667-120.832 62.378666-79.957333 32.597333-74.581333-63.744-131.584-94.976-37.12-20.309333-89.429333 16.469333-121.856 36.864A574.72 574.72 0 0 0 280.490667 264.533333c-21.333333 27.733333-68.437333 79.786667-62.634667 118.613334 9.216 61.696 82.176 64.853333 61.269333 140.202666-11.093333 40.448-31.061333 80.213333-46.08 119.125334-19.968 52.138667-28.16 85.504-86.698666 82.688-42.154667-2.048-70.144-20.053333-96.085334-53.930667C-19.968 579.84-9.386667 456.533333 37.802667 356.266667c66.730667-141.994667 181.248-275.797333 303.445333-362.24 83.2-58.88 192.768-112.213333 293.461333-121.258667 73.728-6.656 176.896 33.28 203.264 113.237333l-4.437333-13.482666 4.437333 13.482666 4.608 13.909334c-0.853333-2.304-2.56-7.936-4.522666-13.653334 23.210667 70.485333 26.026667 104.448-34.986667 137.386667m-107.946667-146.090667c0.341333 1.109333 0.341333 1.194667 0 0"  horiz-adv-x="1024" />

    
    <glyph glyph-name="subscript2" unicode="&#58886;" d="M1024 820.308l-276.028-436.308 276.028-436.308h-1024v872.616h512.013z"  horiz-adv-x="1024" />

    
    <glyph glyph-name="jiaobiao-" unicode="&#59095;" d="M12.004 603.346h1009.74s-1.243-463.548 0-463.548h-576.639s-167.772-7.457-294.533 174.607c0 0-13.050 19.884-30.448 59.652l-108.119 229.289z"  horiz-adv-x="1024" />

    
    <glyph glyph-name="tag3" unicode="&#58888;" d="M1023.999 47.735666666666816l-1014.419-3.410605131648481e-13s60.254999999999995 17.698000000000018 84.53499999999997 89.41500000000003c65.26099999999994 192.764 100.54199999999992 326.96500000000003 126.86299999999986 402.492C254.3429999999998 635.3966666666668 324.799 673.6536666666668 432.25399999999996 673.6536666666668L1023.9989999999998 673.653666666667 1023.999 47.73466666666684z"  horiz-adv-x="1029" />

    
    <glyph glyph-name="sanjiaobiaozuo" unicode="&#58949;" d="M240.182603 886.683437L248.519245 881.271932l596.43556-435.260477a75.907321 75.907321 0 0 0 32.761541-61.42789 77.516147 77.516147 0 0 0-32.761541-61.42789L249.6893-111.519775l-9.945468-7.459101a66.985651 66.985651 0 0 0-33.054055-8.629156 57.040184 57.040184 0 0 0-60.257835 53.091248V843.098886a57.040184 57.040184 0 0 0 60.257835 53.091248 65.961853 65.961853 0 0 0 33.78534-9.214184z"  horiz-adv-x="1024" />

    
    <glyph glyph-name="icon-" unicode="&#58960;" d="M0 384a512 512 0 1 0 512-512H0z"  horiz-adv-x="1024" />

    
    <glyph glyph-name="shuzijiaobiao" unicode="&#58909;" d="M998.4 895.9232H25.6768C25.6 841.6 25.6 786.5344 25.6 729.6c0-466.56 375.3472-857.5488 840.0128-857.5488 44.7232 0 86.4-0.0512 132.7616 0L998.4 895.9232z"  horiz-adv-x="1024" />

    
    <glyph glyph-name="yuanjiaojiaobiao" unicode="&#58890;" d="M915.04296366 901.05670625h-908.50452698l1022.0675967-1022.06761233v908.50454235c0 62.45968122-51.103373 113.56306989-113.56306972 113.56306998z"  horiz-adv-x="1024" />

    
    <glyph glyph-name="jiaobiao11" unicode="&#58984;" d="M959.424262 830.927959L416.024112 830.92795901 64.484663 477.643774 64.484663-64.01164000000006 959.424262 830.927959z"  horiz-adv-x="1024" />

    
    <glyph glyph-name="shangpinxiangqing-xuanzhongjiaobiao" unicode="&#58989;" d="M1024-128H0l1024 1024z"  horiz-adv-x="1024" />

    
    <glyph glyph-name="benyue2" unicode="&#59104;" d="M835.7-25.9L499.4 146.7 188.3-26c-23.8 0-43.1 19.3-43.1 43.1V750.9c0 23.8 19.3 43.1 43.1 43.1h647.4c23.8 0 43.1-19.3 43.1-43.1v-733.7c0-23.8-19.3-43.1-43.1-43.1zM572.3 557.9L512 686.2 451.9 558l-134-20.4 97-99.2-23-140.6L512 364.1l120.2-66.3-23 140.6 97 99.2-133.9 20.3z m0 0"  horiz-adv-x="1024" />

    
    <glyph glyph-name="jiaobiao12" unicode="&#58975;" d="M1007.632368-128v461.874126L461.874126 879.632368H0.511489l1007.120879-1007.632368z"  horiz-adv-x="1024" />

    
    <glyph glyph-name="jiaobiao13" unicode="&#58899;" d="M176.39424 82.59584v-204.14464L25.3952 82.59584H0V884.28544h1061.13024v-801.6896z"  horiz-adv-x="1064" />

    
    <glyph glyph-name="jiaobiao14" unicode="&#58894;" d="M230.4 870.4h768L25.6-102.4V665.6c0 112.64 92.16 204.8 204.8 204.8z"  horiz-adv-x="1024" />

    
    <glyph glyph-name="jiaobiaozuo" unicode="&#58985;" d="M0 896h1024L0-128z"  horiz-adv-x="1024" />

    
    <glyph glyph-name="jiaobiaoyou" unicode="&#58986;" d="M0 896h1024v-1024z"  horiz-adv-x="1024" />

    
    <glyph glyph-name="xiaohuoche" unicode="&#58966;" d="M1024 795.496a30.864 30.864 0 0 1-30.856 30.856h-568.36a30.864 30.864 0 0 1-30.856-30.856V705.6l-208.168 0.688h-0.104a30.856 30.856 0 0 1-26.464-15.008L4.4 433.304A30.976 30.976 0 0 1 0 417.392v-237c0-65.456 53.28-118.736 118.768-118.736h48.416c0.488-66.248 54.488-120.008 120.832-120.008s120.344 53.76 120.832 120.008h213.52c0.496-66.248 54.48-120.008 120.832-120.008s120.344 53.76 120.832 120.008h41.176c65.496 0 118.776 53.28 118.776 118.736v175.28c0 0.704-0.168 1.36-0.2 2.048 0.04 0.696 0.2 1.352 0.2 2.056v435.72z m-61.72-30.864v-374H455.848l-0.2 12.88v361.12H962.28zM288.016 3.368c-32.624 0-59.16 26.576-59.16 59.184s26.536 59.136 59.16 59.136c32.624 0 59.16-26.52 59.16-59.136s-26.528-59.184-59.16-59.184z m455.192 0c-32.608 0-59.16 26.576-59.16 59.184s26.544 59.136 59.16 59.136 59.168-26.52 59.168-59.136-26.552-59.184-59.168-59.184zM962.28 180.392c0-31.464-25.584-57.016-57.056-57.016h-57.72c-20.992 35.84-59.832 60.032-104.296 60.032-44.72 0-83.752-24.448-104.656-60.624a31.256 31.256 0 0 1-5.912 0.592H392.312c-21 35.84-59.832 60.032-104.296 60.032s-83.296-24.184-104.288-60.032h-64.96c-31.464 0-57.048 25.552-57.048 57.016v228.44l141.352 235.672 187.016-0.632 3.832-241.184v-42.912c0-2.736 0.472-5.336 1.136-7.856 1.888-15.24 14.76-27.104 30.48-27.104H962.28v-144.424zM250.24 584.2a30.904 30.904 0 0 1-42.216-11.024l-88.096-150.448a30.856 30.856 0 1 1 53.256-31.192l88.088 150.448A30.832 30.832 0 0 1 250.24 584.2z"  horiz-adv-x="1024" />

    
    <glyph glyph-name="iconjiaobiao" unicode="&#58912;" d="M950.857143-128L512 54.857143 73.142857-128V896h877.714286z"  horiz-adv-x="1024" />

    
    <glyph glyph-name="jiaobiao16" unicode="&#59074;" d="M0 896l1053.405405-1020.706595V612.656432L731.786378 896z"  horiz-adv-x="1053" />

    
    <glyph glyph-name="jiaobiao17" unicode="&#58901;" d="M749.5-14.5l-194.3-101.3a87.154 87.154 0 0 0-80.4 0L280.4-14.5c-28.7 15-46.8 44.7-46.8 77.1V804c0 48 39 87 87 87h388.6c48 0 87-39 87-87v-741.4c0.1-32.4-17.9-62.2-46.7-77.1z"  horiz-adv-x="1024" />

    
    <glyph glyph-name="jiaobiao-1" unicode="&#58917;" d="M997.5808 15.7696l-470.8352 132.096c-7.5776 1.8432-15.5648 1.8432-23.1424 0L33.792 15.7696c-7.4752-1.8432-14.7456 3.9936-14.7456 11.9808V813.9776h993.28v-786.2272c0-7.9872-7.168-13.824-14.7456-11.9808z"  horiz-adv-x="1024" />

    
    <glyph glyph-name="jiaobiao18" unicode="&#58902;" d="M0-128.8947720000001L0 333.53947000000005 546.292225 879.560949 1008.242345 879.560949Z"  horiz-adv-x="1024" />

    


  </font>
</defs>
</svg>
